Ads by BuzzCity

Minggu, 10 Juli 2011

Home » » Soul Surfer 2011 PPVRiP XViD - IMAGiNE

Soul Surfer 2011 PPVRiP XViD - IMAGiNE

Soul Surfer 2011 PPVRiP XViD - IMAGiNE


Soul Surfer 2011 PPVRiP XViD - IMAGiNE
http://imdb.com/title/tt1596346/
Language: English + Subtitles:NIL
1h 46mn | AVI | 608 x 448 | 23.976 fps | 128 kb/s | 44.1 KHz | 1.7 GB
Genre: Action | Drama | Sport


IMAGiNE bringing you another release..........Soul Surfer.Here we go we our take on this ppvrip.....firstly the source,just like all the others really black borders,colours off,LI watermark in bottom right and low Q leading to alot of pixel issues.Having said that they are watchable IF theres nothing better already out ;-)For this we decided to crop left and right borders and resize the video and then we added a Hi Q smoother to it to clean up the noise and blend the pixel issue......then we just did our normal stuff of changing the rgb colours,brightness,contrast and finally added some sharpness back to it.Yes it might look tad blurry but anymore sharpness added and you'll just bring back the video noise etc.....so.Audio untouched and just remuxed to our encode.
Soul Surfer 2011 PPVRiP XViD - IMAGiNE


Soul Surfer 2011 PPVRiP XViD - IMAGiNE
http://imdb.com/title/tt1596346/
Language: English + Subtitles:NIL
1h 46mn | AVI | 608 x 448 | 23.976 fps | 128 kb/s | 44.1 KHz | 1.7 GB
Genre: Action | Drama | Sport


IMAGiNE bringing you another release..........Soul Surfer.Here we go we our take on this ppvrip.....firstly the source,just like all the others really black borders,colours off,LI watermark in bottom right and low Q leading to alot of pixel issues.Having said that they are watchable IF theres nothing better already out ;-)For this we decided to crop left and right borders and resize the video and then we added a Hi Q smoother to it to clean up the noise and blend the pixel issue......then we just did our normal stuff of changing the rgb colours,brightness,contrast and finally added some sharpness back to it.Yes it might look tad blurry but anymore sharpness added and you'll just bring back the video noise etc.....so.Audio untouched and just remuxed to our encode.
A teenage surfer girl summons the courage to go back into the ocean after losing an arm in a shark attack.

Video
ID : 0
Format : MPEG-4 Visual
Format profile : Advanced Simple@L5
Format settings, BVOP : 2
Format settings, QPel : No
Format settings, GMC : No warppoints
Format settings, Matrix : Default (MPEG)
Muxing mode : Packed bitstream
Codec ID : XVID
Codec ID/Hint : XviD
Duration : 1h 46mn
Bit rate : 2 142 Kbps
Width : 608 pixels
Height : 448 pixels
Display aspect ratio : 4:3
Frame rate : 29.970 fps
Color space : YUV
Chroma subsampling : 4:2:0
Bit depth : 8 bits
Scan type : Progressive
Compression mode : Lossy
Bits/(Pixel*Frame) : 0.262
Stream size : 1.59 GiB (94%)
Writing library : XviD 61
Audio
ID : 1
Format : MPEG Audio
Format version : Version 1
Format profile : Layer 3
Mode : Joint stereo
Mode extension : MS Stereo
Codec ID : 55
Codec ID/Hint : MP3
Duration : 1h 46mn
Bit rate mode : Constant
Bit rate : 128 Kbps
Channel(s) : 2 channels
Sampling rate : 44.1 KHz
Compression mode : Lossy
Stream size : 97.3 MiB (6%)
Alignment : Aligned on interleaves
Interleave, duration : 26 ms (0.78 video frame)
Interleave, preload duration : 522 ms
Writing library : LAME3.98.2

SOURCES:
VIDEO:Soul Surfer 2011 PPVRIP IFLIX
AUDIO:Soul Surfer 2011 PPVRIP IFLIX

Screenshot

Soul Surfer 2011 PPVRiP XViD - IMAGiNE


Director:Sean McNamara
Writers:Sean McNamara (screenplay), Deborah Schwartz (screenplay),
Stars:AnnaSophia Robb, Dennis Quaid and Helen Hunt

Download from fileserve.com
http://www.fileserve.com/file/FA8rdxE/Soul.Surfer.2011.PPVRiP.XVi.IMAGiNE.part1.rar
http://www.fileserve.com/file/2rKQvFQ/Soul.Surfer.2011.PPVRiP.XVi.IMAGiNE.part2.rar
http://www.fileserve.com/file/AV485pz/Soul.Surfer.2011.PPVRiP.XVi.IMAGiNE.part3.rar
http://www.fileserve.com/file/qPYQ3Pt/Soul.Surfer.2011.PPVRiP.XVi.IMAGiNE.part4.rar


Download from filesonic.com
http://www.filesonic.com/file/1409682344/Soul.Surfer.2011.PPVRiP.XVi.IMAGiNE.part1.rar
http://www.filesonic.com/file/1409688014/Soul.Surfer.2011.PPVRiP.XVi.IMAGiNE.part2.rar
http://www.filesonic.com/file/1409700544/Soul.Surfer.2011.PPVRiP.XVi.IMAGiNE.part3.rar
http://www.filesonic.com/file/1409670441/Soul.Surfer.2011.PPVRiP.XVi.IMAGiNE.part4.rar


Download from ul.to
http://ul.to/dszk67h1/Soul.Surfer.2011.PPVRiP.XVi.IMAGiNE.part1.rar
http://ul.to/1nymtmtp/Soul.Surfer.2011.PPVRiP.XVi.IMAGiNE.part2.rar
http://ul.to/q7sipml2/Soul.Surfer.2011.PPVRiP.XVi.IMAGiNE.part3.rar
http://ul.to/gdkdpaek/Soul.Surfer.2011.PPVRiP.XVi.IMAGiNE.part4.rar


Download from wupload.com
http://www.wupload.com/file/49485385/Soul.Surfer.2011.PPVRiP.XVi.IMAGiNE.part1.rar
http://www.wupload.com/file/49485334/Soul.Surfer.2011.PPVRiP.XVi.IMAGiNE.part2.rar
http://www.wupload.com/file/49485783/Soul.Surfer.2011.PPVRiP.XVi.IMAGiNE.part3.rar
http://www.wupload.com/file/49485506/Soul.Surfer.2011.PPVRiP.XVi.IMAGiNE.part4.rar


Download from uploadstation.com
http://www.uploadstation.com/file/j8mGUGt/Soul.Surfer.2011.PPVRiP.XVi.IMAGiNE.part2.rar
http://www.uploadstation.com/file/aG5DKaH/Soul.Surfer.2011.PPVRiP.XVi.IMAGiNE.part3.rar
http://www.uploadstation.com/file/wUZfKZh/Soul.Surfer.2011.PPVRiP.XVi.IMAGiNE.part4.rar

Tidak ada komentar:

Poskan Komentar

Related Posts Plugin for WordPress, Blogger...